#TITLE:Needled 24/7;
#SUBTITLE:;
#ARTIST:Children of Bodom;
#TITLETRANSLIT:;
#SUBTITLETRANSLIT:;
#ARTISTTRANSLIT:;
#CREDIT:;
#BANNER:needled-banner.png;
#BACKGROUND:needled-bg.png;
#LYRICSPATH:;
#CDTITLE:mus1c.png;
#MUSIC:01-cob-needled_24-7-ser.mp3;
#OFFSET:0.780;
#SAMPLESTART:130.048;
#SAMPLELENGTH:12.000;
#SELECTABLE:YES;
#BPMS:0.000=192.000,97.500=197.000,100.000=191.600,164.000=96.000,180.000=192.000,212.000=96.000,226.000=144.000,229.000=193.000,248.000=192.000,632.000=96.000,650.000=192.000,714.000=191.000;
#STOPS:629.000=0.300
;
#BGCHANGES:;
// cache tags:
#FIRSTBEAT:4.000;
#LASTBEAT:733.500;
#SONGFILENAME:Songs/Mus1c/Needled 24.7/needled.sm;
#HASMUSIC:1;
#HASBANNER:1;
#MUSICLENGTH:248.664;
// end cache tags

//---------------dance-single - ----------------
#NOTES:
     dance-single:
     :
     Challenge:
     12:
     1.000,1.000,1.000,0.165,1.000,1904.000,345.000,41.000,0.000,3.000:
0000
0000
0000
0000
,
1001
0000
0011
0000
0000
0000
0001
1000
0001
1000
0001
1000
0001
0000
1000
0010
,
1000
0010
1000
0010
1000
0000
0001
0100
0001
1000
0101
0000
0000
0000
0101
0000
,
0110
0000
1010
0000
0000
0000
1000
0010
0100
0001
1000
0001
0010
0000
0100
1000
,
0001
0001
1000
0010
0100
0001
1000
0001
,
1010
0000
0110
0000
0000
0000
0001
0100
0010
1000
0001
1000
0010
0000
1000
0001
,
0100
0010
1000
0100
0010
0000
0001
0010
0100
0001
1100
0000
0000
0000
1100
0000
,
1001
0000
0011
0000
0000
0000
0001
1000
0010
1000
0010
0100
0010
0100
1000
0010
,
0100
0010
1000
0001
1000
0001
0010
0100
1000
0100
1000
0100
0010
0001
0010
0001
,
0010
0001
0010
0100
1000
0001
0010
0100
0010
0001
1000
0100
0001
0010
1000
0100
,
0010
0001
0100
0010
1000
0001
0010
0100
0010
0001
1000
0100
1000
0010
0100
1000
,
0100
0010
0001
0100
1000
0100
1000
0100
0010
0001
0010
0100
1000
0100
0001
1000
,
0010
0100
0010
0100
0001
0010
0100
0010
0001
1000
0100
0010
0001
0100
0010
0001
,
1000
0010
0100
0010
0100
0010
0100
0010
0100
0010
0100
0010
0100
0010
0100
0010
,
0100
0010
0100
0010
0100
0010
0100
0010
0100
0010
0100
0010
0100
0010
0100
0010
,
0100
0010
0001
0010
0100
1000
0001
0010
0100
1000
0100
0010
0001
0010
0100
1000
,
0001
0010
0100
0202
0303
0010
0010
0010
,
1001
1001
1001
1001
0100
1010
0110
0011
,
1000
0101
0110
2100
3000
0001
0001
0001
,
1100
1100
1100
1100
0001
1100
0011
0011
,
1000
0110
1100
0101
0001
1100
0011
0110
,
0001
0001
0001
0001
0010
0101
0101
0101
,
1000
0101
1010
0220
0330
0100
0100
0100
,
1010
1010
1010
1010
0001
1100
0101
0110
,
0001
1100
0011
2001
0000
0002
0000
3003
,
1001
0110
0001
0010
0100
0001
0010
1000
,
0100
1000
0001
0010
0100
0100
0100
0100
,
1100
0000
0011
0000
0000
0000
0001
0010
0100
1000
0010
0100
0001
0000
0001
0100
,
0010
1000
0100
0010
0001
0000
1000
0000
0001
0000
0010
0000
1000
0000
0100
0000
,
0001
1100
0011
0110
1001
0010
0001
0010
,
0100
1001
0110
1010
0101
0010
0100
1000
,
0101
0000
1010
0000
0000
0000
1000
0001
0100
0010
0100
0001
1000
0000
0001
0100
,
0010
1000
0100
0010
0001
0000
0010
0000
0001
0000
1000
0000
0001
0000
0100
0000
,
0101
0011
1000
0001
0010
0100
0010
1000
,
0100
0010
1000
0001
0010
0010
0010
0010
,
0110
0000
1010
0000
0000
0000
1000
0001
0100
0010
0100
0001
0010
0000
0100
1000
,
0100
0010
0001
1000
0001
0000
1000
0000
0010
0000
0100
0000
0001
0000
0010
0000
,
0100
1000
0100
0010
0001
1000
0001
1000
0010
0100
0001
0100
0010
1000
0001
0100
,
0001
0100
0010
1000
0010
0100
0001
0010
0100
1000
0001
0010
0100
1000
0100
0010
,
0101
0000
0110
0000
0000
0000
0100
1000
0001
1000
0010
0100
0001
0000
1000
0000
,
1001
0010
0001
0100
1000
0000
0010
0000
1000
0000
0001
0000
0100
0000
0010
0000
,
1010
1010
1000
0100
0010
0001
0100
0010
1000
0100
0010
0001
0100
0010
1000
0100
,
0010
0001
0100
0010
1000
0100
0010
0001
0100
0010
1000
0100
0010
0001
0100
0010
,
1001
1001
0001
0100
0010
1000
0100
0010
0001
0100
0010
1000
0100
0010
1100
0010
,
0001
0010
0100
0010
0002
0100
0010
1000
0100
0010
1000
0100
0010
1000
0103
1000
,
0010
0010
0010
0010
0001
1010
1010
1010
,
0100
1001
0110
0101
0010
0001
0001
0001
,
1100
1100
1100
1100
0010
0011
0110
1001
,
0010
1100
0101
1100
0010
0011
0101
0011
,
1000
1000
1000
1000
0001
0110
0110
0110
,
0001
1100
1010
0101
0010
0101
0011
0101
,
1000
1000
1000
1000
0100
0011
0011
0011
,
1000
0110
1100
0101
0010
2002
3003
0000
,
0010
0100
1000
0100
0001
0010
1000
0010
0001
1000
0010
0100
0001
0100
1000
0100
,
0010
1000
0100
0001
0100
0010
0001
0100
1000
0100
0001
0010
1100
1010
0110
0100
,
0101
0110
0010
1000
0100
0001
0100
0010
0001
0100
1000
0100
0001
0010
0100
1000
,
0002
0000
0010
0000
0100
0000
0010
0000
1000
0000
0010
0000
1003
0000
0000
0000
1001
0000
0000
0000
0000
0000
0000
0000
0000
1001
0000
0000
0000
0000
0000
0000
,
0000
0000
1100
0000
0000
0011
0000
0000
0101
0000
0000
0000
1000
0000
0000
0000
0011
0000
0000
0000
0110
0000
0000
0000
1001
0000
0000
0000
1010
0000
0000
0000
,
1100
0010
0101
1000
0011
1000
0110
0100
,
1100
0000
1000
0000
1010
0100
0010
0001
0010
0000
0100
1000
0001
0000
1000
0010
,
0100
0001
0010
0100
1000
0100
0010
0001
1000
0000
0001
0100
0010
0000
1000
0001
,
0100
0010
1000
0001
1010
0000
0110
0000
1001
0000
1100
0000
0011
0000
1001
0000
,
0110
0101
1100
0001
1100
0011
1100
0001
,
0010
0000
0100
0000
0010
0100
0010
0100
0010
0100
0010
0100
0010
0100
0010
0100
,
1000
0100
0010
0001
0100
0001
1000
0001
1000
0001
1000
0001
1000
0001
1000
0001
,
1000
0001
0010
0100
1000
0000
0001
0000
1001
0000
1000
0000
0010
0000
0100
0000
,
0101
0001
0010
0100
1100
0100
0010
0100
,
1100
0000
1000
0000
0001
0100
0010
1000
0001
0000
0010
0100
1000
0000
0100
0001
,
0100
1000
0010
0100
0001
0100
0010
1000
0001
0000
0010
0100
1000
0000
0001
1000
,
0001
0010
1000
0010
0001
0000
0010
0000
0110
0000
0100
0000
1000
0000
0010
0000
,
1001
0100
1010
0001
1100
0001
0110
1100
,
1001
0000
0100
0000
0001
0100
0010
1000
0001
0010
0100
1000
0100
0010
0001
1000
,
0010
1000
0001
0010
0200
0000
0000
0000
0000
0000
0300
0000
0000
0000
0000
0000
,
0000
0000
0000
0000
1000
0010
0002
0000
0000
0000
0003
0000
1000
0010
0100
0001
,
0100
0010
1000
0001
0010
0100
1000
0100
0010
0001
1000
0010
0100
0001
0010
0100
,
1000
0100
0010
0001
1000
0001
0010
0001
1000
0010
0100
0001
1000
0010
0100
0010
,
0100
0001
0010
0100
1000
0010
0100
0100
0100
0100
0100
0100
0100
0100
0100
0100
,
0100
0100
0100
0100
0100
0100
0010
0001
0010
0100
0010
0001
1000
0010
0100
0001
,
0010
0100
1000
0010
0100
0001
0010
0100
0010
0001
1000
0010
0100
0001
0010
0001
,
1000
0100
1000
0001
0110
0000
0000
0000
2000
0000
3100
0010
0001
0010
0100
1000
,
0100
0010
0001
0100
1000
0000
0110
0000
1001
0000
1100
0000
0011
0000
1100
0000
,
1001
0000
0110
0000
0011
0000
1100
0000
0000
0000
1000
0001
0100
0001
0010
0001
,
1000
0000
0001
1000
0010
1000
0100
1000
0001
0000
1000
0100
0010
0000
0001
0000
,
0010
0000
0100
0000
1100
0000
0110
0000
0000
0000
0010
0100
1000
0100
0010
0001
,
0010
0000
0100
0010
0001
0010
0100
1000
0100
0000
0010
0000
0001
0000
1000
0000
,
0001
0010
0100
0000
1100
0000
0100
0000
0010
0000
0100
0000
0011
0000
0100
0000
,
0010
0100
1100
0100
0010
0100
0011
0100
,
0010
0000
0100
0000
1001
0000
0110
0000
0000
0000
0010
1000
0010
0100
0001
0010
,
0100
0000
1000
0100
0010
0001
1000
0001
0010
0000
0100
0000
1000
0000
0100
0000
,
0010
0000
0001
0000
1100
0000
0011
0000
0000
0000
0001
1000
0001
0100
0001
0010
,
0100
0000
1000
0100
0010
0001
1000
0100
0010
0000
0001
1000
0001
0100
0001
0010
,
0001
0000
0010
0000
0110
0000
1100
0000
0000
0000
1000
0001
0100
0010
1000
0001
,
0010
0000
1000
0010
0001
1000
0010
0100
0001
0000
0010
0000
1100
0000
0100
0000
,
1000
0001
0100
0000
0110
0000
0010
0000
1000
0000
0010
0000
1010
0000
0010
0000
,
1000
0010
0110
0010
1000
0010
1010
0010
,
1000
0000
0010
0000
1100
0000
0011
0000
0000
0000
0001
1000
0010
0100
0010
1000
,
0001
0000
0010
0100
1000
0001
0010
0100
1000
0100
0010
0100
1000
0100
0010
0001
,
0010
0100
0010
0001
1000
0000
1000
0000
1000
0000
1000
0000
0001
0000
0001
0000
,
0001
0001
0010
0010
0010
0010
0100
0100
,
0100
0000
0001
0000
0001
0000
0010
0100
1000
0000
0001
0100
0010
0000
1000
0001
,
0100
0001
0010
0100
1000
0100
0010
0001
0010
0000
0100
1000
0010
0000
0001
1000
,
0001
0010
0100
1000
0200
0000
0001
0000
0001
0000
0001
0000
2300
0000
0010
0000
,
0010
0010
3002
1000
1000
1000
0023
0100
,
0100
0000
0100
0000
0031
1000
0001
0010
0100
1000
0100
0010
0100
1000
0001
0010
,
0100
1000
0100
0010
0001
1000
0001
1000
0010
0100
0001
1000
0001
0010
0100
1000
,
0001
0010
0100
1000
0102
0000
0010
0000
1000
0000
0100
0000
2103
0000
0001
0000
,
0100
0001
3120
0001
1000
0100
2031
0100
,
0010
0000
0001
0000
3001
0000
0010
0100
1000
0000
0001
1000
0001
0000
1000
0010
,
0100
0010
1000
0100
0010
0000
0001
1000
0001
0000
0001
1000
0001
0000
0001
1000
,
0001
1000
0001
1000
0001
0000
0010
0000
0100
0000
1000
0000
0010
0000
0100
0000
,
0010
0100
1100
0100
0011
0001
1010
0101
,
1010
0000
0001
0000
0100
0010
0001
1000
0100
0010
0001
1000
0010
0100
0001
0010
,
0100
0010
0001
1000
0001
1000
0010
0100
0001
0010
0100
1000
0010
0100
0001
0010
,
0100
1000
0001
0010
1001
0000
0001
0000
0001
0000
0001
0000
1000
0000
1001
0000
,
0000
0000
0011
0010
0010
0010
0100
1100
,
0000
0011
0000
0000
0110
0000
0100
0000
0100
0000
0100
0000
0100
0000
1100
0000
,
0000
0000
0000
0000
1001
0000
0001
0000
0001
0000
0001
0000
0011
0000
0000
1001
,
0000
1010
0101
0001
0010
0100
1100
0100
,
0011
0010
0110
0100
1000
0001
0101
0100
,
1010
0010
0110
0100
0001
0010
0011
0010
,
0110
0100
1100
1000
0001
1000
2002
0000
,
0000
3003
1010
1000
0010
0100
0101
0001
,
0011
0010
0110
0100
1000
0001
1001
0001
,
0011
0010
0110
1100
1100
1001
0000
1100
,
1001
0000
0011
1001
0000
0011
1001
0000
,
1001
0000
0100
0100
0100
0100
0001
0010
,
0001
0010
1000
1000
1000
1000
0010
1000
,
0010
1000
0010
0010
0010
0010
0100
1000
,
0100
1000
0001
0001
0001
0001
1000
0100
,
0010
0001
0100
0100
0100
0100
1000
0001
,
1000
0001
1000
1000
1000
1000
0010
0100
,
0010
0100
0010
0010
0010
0010
0001
0010
,
0100
0000
1000
0000
0100
0000
0010
0100
1000
0010
0100
0001
1000
0100
1000
0010
,
0001
0010
1000
0000
2000
0000
0000
0000
3001
0000
0100
0000
0010
0000
1000
0000
,
0001
0022
0033
0010
0100
1000
0001
1000
,
0100
0000
0000
0000
0000
0000
0010
0000
0000
0000
0000
0000
0102
0000
0000
0000
0000
0000
0003
0000
0000
0000
0000
0000
0010
0000
0000
0000
0100
0000
0000
0000
1000
0000
0000
0000
0001
0000
0000
0010
0000
0000
0001
0000
0000
0010
0000
0000
,
0001
0000
0010
0000
0001
1000
0001
1000
0001
1000
0001
1000
0001
0100
0001
0100
,
0001
0010
0001
0010
0001
0010
0100
1000
0010
0100
0001
0010
0100
1000
0010
0100
,
0010
1000
0010
0100
0001
0010
0100
0010
0001
1000
0001
0100
0010
1000
0010
1000
,
0100
1000
0100
0010
0200
0000
0000
0000
0000
0000
2300
0000
0000
0000
0000
0000
,
3002
0000
0203
0000
0000
0000
0000
0320
,
0000
0000
0031
0100
0010
1000
0010
1000
,
0100
0000
0020
0000
0000
0000
0031
1000
0001
0010
0100
1000
0100
0000
0010
0000
,
0001
1000
0001
0100
0010
0001
0110
1000
,
0010
0000
2000
0000
0000
0000
3001
0100
0010
1000
0001
0010
0100
1000
0100
0010
,
0001
1000
0001
0010
0100
0010
0001
1000
0001
0010
0100
1000
0010
0100
0001
0010
,
1000
0010
0001
1000
0010
0100
0001
0010
0100
0010
0001
1000
0100
0010
0100
1000
,
0001
1000
0001
1000
0001
0000
0010
0000
0100
0000
1000
0000
0100
0000
0010
0000
,
0001
0020
0000
0000
0000
0000
0000
0000
,
0000
0030
1001
1001
1001
1001
0000
1010
,
1010
1010
0000
0110
0110
0110
0000
0011
,
0011
0011
1100
1100
1100
1100
0000
1010
,
1010
1010
0000
0101
0101
0101
0000
0011
,
0011
0011
1001
1001
1001
1001
0000
0110
,
0110
0110
0000
1100
1100
1100
0000
0101
,
0101
0101
1001
1001
1001
1001
0000
0110
,
0110
0110
0000
1100
1100
1100
0000
0020
,
0000
0000
0030
0000
1001
0000
0000
0000
1001
0000
0000
0011
0000
0000
0110
0000
,
1001
0001
0010
0100
1000
0001
1000
0010
0100
0001
0010
1000
0010
0001
1000
0010
,
0100
0001
0100
0010
0100
0001
0010
0100
1000
0100
0001
0100
1000
0011
0110
1100
,
1001
1100
1100
0011
0011
0110
0110
1100
1100
0110
0110
0011
0011
0101
0101
0110
,
0110
1010
1010
0110
0110
0101
0101
0011
0001
0010
0001
0010
0001
0010
0001
0100
,
0101
0101
0000
0000
0001
0001
0100
0000
0101
0000
0100
0000
0010
0000
1000
0000
,
1100
0100
0010
0001
1001
0001
0010
0100
,
1100
0000
1000
0000
0001
0000
1000
0000
1010
0000
1000
0001
0010
0000
0100
1000
,
0100
0000
0010
0001
0010
0100
1000
0100
0010
0000
0001
1000
0001
0000
1000
0010
,
0100
0000
0001
0100
0010
1000
0010
1000
0101
0000
0100
0000
0010
0000
1000
0000
,
1100
1000
0100
0010
0011
0010
0100
1000
,
0011
0000
1000
0000
0100
0000
1000
0000
1001
0100
0010
0100
0001
0010
1000
0010
,
0001
1000
0010
0100
0001
0100
0010
1000
0001
0010
0100
0010
0100
1000
0010
0100
,
0001
0100
0010
1000
0001
0100
0010
1000
0101
0000
0100
0000
0010
0000
1000
0000
,
1100
0100
0010
0100
1100
0010
0001
0010
,
0011
0000
1000
0000
0001
0000
0100
0000
0101
0000
0100
0010
1000
0000
0010
0100
,
0001
0000
0010
0100
1000
0100
0010
0001
1000
0000
1000
0001
1000
0000
0001
1000
,
0001
0000
1000
0010
0100
0001
0010
0001
1100
0000
1000
0000
0001
0000
0100
0000
,
0110
0010
1000
0001
0101
0010
0101
1000
,
0101
0000
0101
0000
0101
0000
1000
0000
0100
0010
1000
0100
0010
0001
0010
0100
,
1000
0001
0010
0100
1000
0100
0010
0001
1000
0010
0100
0010
1000
0001
0100
0010
,
0100
0001
0010
0001
1000
0010
0100
0010
1000
0010
0100
0001
0010
0100
0010
0001
,
1000
0100
0010
0001
1000
0010
0100
0001
0010
0100
1000
0010
0100
0001
0010
0100
,
1000
0100
0010
0001
0100
0010
1000
0010
1001
0000
0000
0000
0000
0000
1001
0000
,
0000
2002
0000
0000
,
0000
0000
0000
0000
3003
0000
0000
0000
1000
0010
0100
0001
1000
0010
0100
0010
,
2002
0000
0000
3003
0000
0000
0000
0000
;
